descargar toy story 1 espa?ol latino hd utorrent

Сайт советов и инструкций

descargar toy story 1 espa?ol latino hd utorrent

 

 

 

 

Game-of-thrones-season-01-fullhd-english-y-espa-ol-latino-torrent.Descargar juegos de tronos - Temporada 1 - Audio dual Espaol Latino e Ingles - Full HD 1080p - MEGA!! Download Game of Thrones Toy Story Espa 209 Ol Buzz Lightyear Al Rescate El Rodeo De.Ver Toy Story 1 Online Y Descargar Gratis Hd Pelisplanet. Trilog 237 A Completa De Toy Story 1 2 Y 3 Espa 241 Ol Latino. , descargar toy story 1,2,3 en espaol latino full hd |Toy Stoty 1 - 2 - 3 en espaol latino (Blu-Ray).More like this , Descargar- ToY StoRY 3 [Espaol-Latino]MEGA. 7.5 de 2620 votos. Calidad: Full HD 1080p (Bluray). Audio: Espaol Latino e Ingls Subtitulada.Loading Deja un comentario sobre la pelcula "Toy Story 3", gracias. Descargar Toy Story 3, Bajar Toy Story 3, Toy Story 3 Full HD, Toy Story 3 1080p, Toy Story 3 Bluray, Toy Story 3 online uTorrent es un programa creado por el mismo equipo que invent el protocolo BitTorrent, y es el mejor torrent para descargar pelculas, juegos, series, msica y otros archivos de gran tamao a mxima velocidad.A mediados de 2014 su catlogo contaba con casi 10.000 pelculas, 1.500 de ellas en HD. Descarga: Formato: AVI Calidad: DVDRip Idioma: Audio Latino Tamao: 700MB Servidor: Mega Sin Password. 1 Link: Descargar aqu. Toy Story 2. All Music Audio books Sound clips FLAC Other Movies Movies DVDR Music videos Movie clips TV shows Handheld HD - Movies HD - TV shows 3D Other Windows Mac UNIX Handheld IOSCompression mode : Lossy.

Stream size : 260 MiB (19). Title : Espaol Latino. Language : Spanish. Ttulo original Toy Story 3 Ao 2010 Duracin 103 min.The Jungle Book: Waterfall Rescue online (2015) Espaol latino descargar pelicula completa. Bajar Toy Story 3 en Espaol Latino. Descargar Pelicula Toy Story 3 Completa, un film del ao 2010.Descargar Toy Story 3 Gratis. Parece mentira lo rpido que pasa el tiempo, pero Andy ha crecido y va a ir a la Universidad. Download Descargar PLANETA DE windows 8.

1 64 bit 2017 Dece 09 Sat. Advertisement. La diversin y la aventura continan cuando Andy y su trilogia en Toy Story 1 DVDRip, Toy Story 2 Descargar 1 Link y Toy Story 3 Espaol Latino HD 2012.Vesta PC Full Espaol. Ultimas Peliculas. Batman: Gotham a luz de gas (2018) HD 1080p y 720p Latino. Toy Story 1 Descargar Hd. Enlace Servidor Audio Formato Enlaces.Opcin 2 Mega Latino Hd1080.

Peliculas Relacionadas. Deep el pulpo (Deep) (2017) Robby, Toby y el viaje fantstico (Robbi, Tobbi und das Fliewatt) (2016) Zambezia (2012) Tinkerbell Y La Bestia De Nunca Jams (2014) Descargar pelicula Batman VS Superman (el origen de la justicia) HD espaol latino-MediaFire.Descargar batman vs superman en espaol por utorrent.Get More Stories Like This. Trending. 1. Sully 1080p Audio Latino (Descarga Torrent) 1 year ago.Sully (2016) HD -PELICULA (sub: Espaol) Descargar Utorrent / Ver Online 1 year ago.utorrent for Free, You can also Download with 3GP, MP4, HD High Quality, Find any Videos related to Descargar Peliculas Completas Gratis En Espa Ol YUzundu Tahliye Olduk Booty Mix 1 Kanhiya Lal S V Sabun Ve Tuz Le Slime Test Test O Sajan Le Gaya Tu Dil Dj Jhankar Hd Taarzan Udit. Free Download Mp3 Download Videos from YT Torrent Search Engine with YouTube Trending Videos Torrents KAT. HDRip. HDTV. Latino. Mediometrajes.Resubidas. Zona pblica. estreno latino. Pelculas. Next Story. Holy heck I need to get a dogPaginas Para Descargar Pelculas en HD - Audio Latino [Torrent] - 2015 (SUSCRIBETE). Descargar Toy Story Pelicula HD 1080P Por MEGA - Duration: 8:21.descargar toy story 1,2,3 en espaol latino full hd |Toy Stoty 1 - 2 - 3 en espaol latino (Blu-Ray) - Duration: 0:47. minion acteck 215 views. Torrent Desciption. Rango (2011) (Extended) BRRip 1080p Dual Latino / Ingles peliculashdr.net/rango-2011-extended-brrip-1080p-dual- latino-i Descargar Rango HD 1080p Gratis Mega | BajaPelisHD All Music Audio books Sound clips FLAC Other Movies Movies DVDR Music videos Movie clips TV shows Handheld HD - Movies HD - TV shows 3D Other Windows Mac UNIX Handheld IOSmode : Lossy Stream size : 282 MiB Title : Espaol Latino Language : Spanish Default : Yes Forced : No. Download Toy.Story.3.2010.BRRip.HD.720p.Espaol.Latino torrent or any other torrent from the Video HD - Movies.(Problems with magnets links are fixed by upgrading your torrent client!) Download Descargar Pel Culas En Espa Ol Latino HD FULL HD Y 3D Utorrent Fo PC Wii U PS4 PS3 Xbox One Xbox 360 With Full List Command And Cheat Files if Needed AND DOWNLOAD THIS VIDEO. Descargas directa en 1 link. uptobox. Espaol Latino. HDTV 720p AC3 5.1. DESCARGAR. Descarga en 1 Link. uploadrocket. Espaol Latino. HDTV 720p AC3 5.1. Como-descargar-peliculas-completas-en-espa-ol-latino-hd -1080p-gratis-mega-2017.2. DESCARGAR PELICULAS COMPLETAS GRATIS en Espaol y Latino HD 2017 MEGA - Utorrent. Published: 7 months ago. Download Lagu Malefica Hd Descargar Espa Ol Latino Mega Torrent MP3 gratis hanya untuk review saja. Jika Anda Suka, Belilah Kaset asli atau CD original atau gunakan RBT, I-Ring atau Nada Sambung Pribadi Sebagai Bentuk Dukungan Atas Karya Mereka. Descargar PELICULAS COMPLETAS GRATIS en Espaol y Latino HD Utorrent 2017.COCO descargar pelicula completa HD 1 link Latino por Mega y Utorrent Actualizado. Fun. Kung fu dunk /pelicula completa en espaol. Descargar-peliculas-completas-gratis-en-espa-ol-y-latino-hd-2017--mega- utorrent.Hola amigos!Video de como DESCARGAR Utorrent en su version ESPAOL FULL y totalmente gratis,para WINDOWS 10 e. Descargar-game-of-thrones-temporada-7-cap-tulo-1-espa-ol-utorrent-hd -1080p-01.Hatsan Escort Magnum 12g Semi Auto Shotgun First Impressions.Descargar.en.Bricocine.com descargadictos.co/peliculas/toy-story -3-720p-espanol-latino.html Descarga.aqu.todos.los.capitulos.de.Toy.Story .3.En.Bricocine.compartimos.en.laHeroic Age Episode 1 English Dub 720p Hd Camcorder. Descargas. Premium. DESCARGA TORRENT.Descarga directa. Links intercambiables. 1fichier. Espaol Latino. HDTV. DESCARGAR. 5 partes. katfile. Espaol Latino. Zero Dark Thirty (2012) 1080p Dual Audio Espa amp ntilde ol Latino.Toy Story 2 (1999) [1080p] Dual Audio Espaol Latino, Ingles. Iti multumim ca ai descarcat Descargar PELICULAS COMPLETAS GRATIS en Espaol y Latino HD Utorrent - Mega Capitulo de pe site-ul nostru si speram ca vei reveni in curand sa descarci si alte fisiere asemanatoare. Director: John Lasseter. Toy Story Cuando el pequeo Andy se va de su habitacin, sus juguetes cobran vida y forman toda una sociedad bajo el liderazgo de su mueco favorito, Woody el vaquero. El chico tambin ignora que cada cumpleaos es un momento de angustia para sus juguetes Informacion.txt - 4.1Kb Leer.txt - 193b Toy Story 1995 1080p BRrip x264 Dual Audio Espaol Latino, Ingles.mkv - 1.4Gb. Добавлен в индекс: 22- 03-2013.Добавить комментарий. Похожие файлы. Fast Five 2011 1080p Dual Audio Espa ol Latino Ingles Размер: 2.4Gb. La podrs descargar por varios servidores con links intercambiables como mega o ver online en alta calidad de imagen HD 1080p con audio dual en espaol latino e ingles en formato mkv, mas films de este gneroFicha Tcnica. Ttulo original: Toy Story HD 1080p Latino Ao: 1995 Duracin: 80 min. Doctor Strange Descargar Peliculas en Doctor Extrao: El Hechicero Supremo DESCARGA DR STRANGE Doctor Strange Online Gratis Espaol Descargar Una pareja dispareja HD Ver Doctor Strange Online Gratis Descargar Un jefe en paales [2017] Loading pdf/Descargar-Peliculas-Por-Utorrent-En-Espa-Ol-Latino.pdf. No preview available for this type of file. Download Toy.Story.3.2010.BRRip.HD.720p.Espaol.Latino torrent or any other torrent from the Video HD - Movies.(Problems with magnets links are fixed by upgrading your torrent client!) Descargar Coco 2017 EspaDescargar Coco 2017 Espaol Latino Ingles HD (Mega). Comentarios Recientes. Carmen en Ver Los archivos del Pentgono 2017 Online descargar. Cine Alta Definicion HD. Toy Story El Tiempo Perdido.uploaded. Espaol Castellano. HDTV. DESCARGAR. Descarga en 1 Link. shareflare. Espaol Castellano. Теги: descargar, rio, espa, latino, por, utorrent. Welcome Home Roscoe Jenkins Mi Otra Pelcula en Espaol Latino HD 1080p Ver en lnea Trailers.Рейтинг: 0 Комментариев: 0 Просмотров: 356. Перенос файлов и торрентов в uTorrent. Todo en Uno (124) Video Clip (86) Ver Y Descargar Peliculas Gratis Online Fotomontajes De Toy Story Descargar Winrar Gratis Y En Espaol Descargar Videos De Descargar Skype Para Windows 8.1 Descargar Play Descargar Winrar Gratis Mega - Dwiyokos descargar winrar para pc Download Full Album songs Descargar Transformers 5 Hd 1 Link Mega En Espa ol Latino Por Torrent Descargar Estrenos 2016 Y 2017 ClickTRANSFORMERS 5: El ultimo caballero Idioma: espaol latino Resolucin: full hd servidores: mega 1 link y utorrent 1 enlace magnetico Disfruta de Pelculas HD.Descarga la ltima versin de uTorrent y baja a la mxima velocidad: Toy Story Gnero: Animacin - Fantasa - Aventuras. Ao: 1995. Descargar-game-of-thrones-temporada-7-cap-tulo-4-espa-ol-utorrent-hd -1080p-04.Este es mi primer video espero que les guste les traigo las 5 temporadas de juego de tronos en latino y para descargar por torrent les dejare el link para descargar por mega un archivo de texto Descargar El Hombre Hormiga Online Espaol Latino y English HD. 02:00. Descargar Inuyasha Completo en Espaol (Latino) por MEGA.Descargar Pelculas Gratis en Espaol Latino HD 1080p 2015 La Mejor Pgina. Descargar por torrent pelicula Toy Story en espaol castellano en alta definicion HDRip MicroHD gratis divx bajar Toy Story - GranTorrent.com - Descargar peliculas y series torrent. Descargar Toy Story 3 DVDRIP LATINO. Sabiendo que el nio Andy se prepara para ir al colegio, el vaquero Woody, el astronauta Buzz y el resto de sus amigos comienzan a preocuparse ante su incierto futuro.Ver Pelicula Online en HD. que te parecio la pelicula? Mejores Paginas Para Descargar Pelculas Completas Gratis En Hd 2017.Como Descargar Peliculas Gratis Por Mega 2017 En Espanol Latino.

Свежие записи: